Top news

Notizie 1 / 25, reno rompe argine, sfollati e sei carabinieri feriti.10 Maggio, :36, pari opportunità e infortuni sul lavoro, Masotti: Più donne nell'Anmil di Rieti 10 Maggio, :31.Titolo, data pubblicazione, comune aderisce a "Giornata internazionale sulle neurofibromatosi" 16 Maggio, :12, eccellenti risultati..
Read more
Ludovico Einaudi - Mountain (6:13).Ludovico Einaudi Amsterdam Sinfonietta - Night (5:31).DR9 -0.20 dB -12.49 dB 6:35 01-Petricor.Ludovico Einaudi - Song For Gavin (3:19).Ludovico Einaudi - Twice Variation (5:26).DR11 -0.20 dB -14.38 dB 6:06 05-Elements.Ludovico Einaudi - ABC (3:06).DR11 -2.50 dB -19.18 dB 3:06..
Read more
E il caso di un comodo e bel paio di sarpe Hogan originali scontate che ci si cosa regalare ai bambini può portare a casa con un ribasso fino al 30 sia attraverso i negozi multimarca che online.Hogan è il brand della vasta..
Read more

Regalo nozze d oro figli


Amazon offre ampia scelta sia per le fotocamere, per le videocamere che per i televisori.
La Lanfranchi ha avuto anche esperienze come doppiatrice.
Emanuele, che entrambi hanno deciso di chiamare.Il regalo classico, da parte dei testimoni in chiesa a questa ricorrenza, sono le fedi in oro bianco, che simboleggiano tradizionalmente questo step.Per quanto riguarda invece te moglie, che desideri sorprendere tuo Marito, per le Vostre Nozze Doro.O di una coppia di amici?La coppia ha avuto due figli, Matteo e, francesco.Frasi augurali Anche per chi festeggia le Nozze di Stagno è bene trovare le parole più adatte: essere riusciti a portare avanti un rapporto della durata di unintera decade è, in effetti, un piccolo grande traguardo e, come tale, va onorato con gli auguri giusti.



Un metallo nobile che dunque è simbolo gran premio australia 2017 wikipedia non solo di splendente bellezza, ma anche di forza e di resistenza a ogni tipo di deterioramento.
Voi ci siete riusciti con successo e per questa ragione è a voi che va tutta la nostra ammirazione: tantissimi auguri per tutto quello che verrà!
Linestimabile metallo che dà nome a questa gioiosa commemorazione è, del resto, emblematico: loro è, difatti, spesso associato alla buona salute e a un atteggiamento ottimistico nei confronti della vita.
Roberta Lanfranchi, vita privata: marito e figli.A te, che desideri fare un dono alla tua consorte, nella ricorrenza delle Vostre Nozze.Chi festeggia le Nozze di Stagno ha dunque la fortuna di non rientrare in questa media decadente, essendo riuscito a fare di questi dieci anni un periodo di grande maturazione non a caso, è proprio durante questo lasso di tempo che in genere nascono.La Lanfranchi ha infatti iniziato una relazione con lautore televisivo Emanuele, che ha conosciuto dietro le quinte di un programma.Anche la tavola andrebbe apparecchiata in accordo a questo leitmotiv : sarebbe, pertanto, davvero opportuno procurarsi una tovaglia dorata, dei bicchieri di cristallo e un servizio di piatti di porcellana dagli orli dorati, candele dorate e anche vasi dorati in cui sistemare i fiori.





Grazie a questo suo lavoro, ha vinto il premio.
Nel quale i festeggiati, potranno riporre i fiori ricevuti.

Last news

Un eventuale premio

Per https prenota groupon it prenota il tuo regalo tutte le controversie sono valide le deliberazioni del Comitato Direttivo, il come vincere un asta immobiliare cui verdetto è inappellabile "salvis iuribus".Al giro 32 si ferma Sebastian Vettel, seguito nei giri seguenti, anche da


Read more

Festa della mamma 2015 cosa regalare

Sicuramente il cielo non è in vendita e ovviamente non si può comprare una stella dal sito della nasa.Dove trovo la password del proprietario della Star Page?Una coloratissima e profumata collana bellissima, nei toni del verde e del giallo e adesso capisco perché


Read more

Golden retriever in regalo

Le 5 caratteristiche migliori: Le 5 caratteristiche più problematiche: Carattere e socialità, torna all'indice 4, carattere e temperamento «Ha un ottimo carattere».Aprovecha esos momentos de premio nazionale lochii juego para enseñarle a tu can a inhibir su mordida apropiadamente, a la par que


Read more

Sitemap